Поворот / Агент / Turn / Сезон: 3 / Серии: 1-10 из 10 [2016, драма, военный, WEB-DLRip 400p] МVO (LostFilm) + Original (Eng) + Sub (Eng)

Модератор: Модераторы


Раздал: 2.14 ТБ
Скачал: 217.8 ГБ
Ратио: 10.070
Сообщения: 51

Зарегистрирован: 16 окт 2013, 18:51
Поворот / Агент / Turn

«The Untold Story of America's First Spy Ring»

Сезон: 3 / Серии: 1-10 из 10


Год выхода: 2016
Жанр: драма, военный,
Выпущено: США
Режиссёр: Джереми Уэбб, Эгил Эгилссон, Майкл Аппендаль, ...

В ролях: Джейми Белл, Хезер Линд, Сэмюэл Рукин, Берн Горман, Джеймс Дж. Галлахер, Дж.Е. Мацер, , Майк Стивенс

Описание:
1778 год. История о нью-йоркском фермере, который связался с группой друзей детства, чтобы сформировать отряд шпионов, который переломил ход борьбы Америки за независимость…




Качество: WEB-DLRip
Перевод: Профессиональный многоголосый
Продолжительность серии: ~ 00:44:00

Источник: WEB-DL 1080p

Формат: AVI Сэмпл
Видео: ~ 2000 Кбит/сек, 720x400, 23.976 fps, 0.291 Бит/Пиксели
Аудио #1: Rus: AC3, 48,0 kHz, 6 ch, 384 kb/s |LostFilm|
Аудио #2: Eng: AC3, 48,0 kHz, 6 ch, 384 kb/s |Original|
Субтитры: Eng (отдельным файлом)
Формат: Srt

Релиз:
Рип: kogesan
Работа со звуком: SerGV
Дорожка №1 получена наложением выделенных голосов на центр оригинального AC3





  1. Прощание (Valediction)
  2. Хладнокровные ублюдки (Cold Murdering Bastards)
  3. Благословение (Benediction)
  4. Сердца и умы (Hearts and Minds)
  5. Лицемерие, обман и тирания (Hypocrisy, Fraud and Tyranny)
  6. С миру по нитке — голому рубаха (Many Mickles Make a Muckle)
  7. Суд (Judgement)
  8. Залатанный (Mended)
  9. Клинок на пере (Blade on the Feather)
  10. Суд и казнь (Trial and Execution )



Общее
Полное имя : E:\_Сериалы\_Сериалы\Поворот\TURN.Washingtons.Spies.S03.WEB-DLRip.Rus.Eng\TURN.Washingtons.Spies.S03E01.WEB-DLRip.Rus.Eng.avi
Формат : AVI
Формат/Информация : Audio Video Interleave
Размер файла : 894 Мбайт
Продолжительность : 44 м.
Общий поток : 2788 Кбит/сек
Программа кодирования : VirtualDubMod 1.5.10.3 | http://www.virtualdub-fr.org || (build 2550/release)
Библиотека кодирования : VirtualDubMod build 2550/release

Видео
Идентификатор : 0
Формат : MPEG-4 Visual
Профиль формата : Advanced Simple@L5
Параметр BVOP формата : 1
Параметр QPel формата : Нет
Параметр GMC формата : Без точки перехода
Параметр матрицы формата : Default (MPEG)
Идентификатор кодека : XVID
Идентификатор кодека/Подсказка : XviD
Продолжительность : 44 м.
Битрейт : 2006 Кбит/сек
Ширина : 720 пикселей
Высота : 400 пикселей
Соотношение сторон : 16:9
Частота кадров : 23,976 (23976/1000) кадра/сек
Цветовое пространство : YUV
Субдискретизация насыщенности : 4:2:0
Битовая глубина : 8 бит
Тип развёртки : Прогрессивная
Метод сжатия : С потерями
Бит/(Пиксели*Кадры) : 0.291
Размер потока : 643 Мбайт (72%)
Библиотека кодирования : XviD 73

Аудио #1
Идентификатор : 1
Формат : AC-3
Формат/Информация : Audio Coding 3
Расширение режима : CM (complete main)
Параметр Endianness формата : Big
Идентификатор кодека : 2000
Продолжительность : 44 м.
Вид битрейта : Постоянный
Битрейт : 384 Кбит/сек
Каналы : 6 каналов
Расположение каналов : Front: L C R, Side: L R, LFE
Частота : 48,0 КГц
Частота кадров : 31,250 кадров/сек (1536 spf)
Метод сжатия : С потерями
Размер потока : 123 Мбайт (14%)
Выравнивание : Разделение по промежуткам
Продолжительность промежутка : 42 мс. (1,00 видеокадр)
Время предзагрузки промежутка : 500 мс.

Аудио #2
Идентификатор : 2
Формат : AC-3
Формат/Информация : Audio Coding 3
Расширение режима : CM (complete main)
Параметр Endianness формата : Big
Идентификатор кодека : 2000
Продолжительность : 44 м.
Вид битрейта : Постоянный
Битрейт : 384 Кбит/сек
Каналы : 6 каналов
Расположение каналов : Front: L C R, Side: L R, LFE
Частота : 48,0 КГц
Частота кадров : 31,250 кадров/сек (1536 spf)
Метод сжатия : С потерями
Размер потока : 123 Мбайт (14%)
Выравнивание : Разделение по промежуткам
Продолжительность промежутка : 42 мс. (1,00 видеокадр)
Время предзагрузки промежутка : 500 мс.


  • Торрент
Для скачивания торрента необходимо зарегистрироваться или войти на трекер.

Раздал: 5.03 ГБ
Скачал: 68.93 ГБ
Ратио: 0.073
Сообщения: 2

Зарегистрирован: 11 июн 2016, 08:06
есть хоть кто живой тут?

Вернуться в Поворот / TURN


cron
Яндекс.Метрика